WK綜合論壇, WK综合论坛

查看:387868 回復:33 發表於 2016-10-15 09:03:03
累計簽到︰1910 天
連續簽到︰3 天
發表於 2016-10-12 18:58:49 | 顯示全部樓層 |閱讀模式
VIP精品區,資源無限好賺金任務區,輕松賺金幣
加入VIP,享受高級特權宣傳賺金又升級,超級棒

神奇隊長 Captain.Fantastic, 2016.[MKV / 3.48GB]   [複製鏈接]

影視分享
分類: 電影
題材: 愛情 劇情 喜劇 
地區: 美國 
語言: 英语 
格式: MKV 
年份: 2016
資源: BT资源

# O7 |7 A* \, e2 [7 S) x+ W4 ~, b) I& r
◎译  名 神奇队长
, G8 @, ^' V$ a  w: V! [9 p) `◎片  名 Captain Fantastic
  N) o2 Z3 X6 b! _) e! s$ u1 s  U◎年  代 2016
; F: @; V, w" B9 K1 S" ]! S; u◎国  家 美国" _- |4 w: U: G
◎类  别 剧情/喜剧/爱情
4 |: F3 h: @, B5 d( V% }7 b1 O◎语  言 英语
. l3 g- c3 S* u1 w" [◎上映日期 2016-01-23(圣丹斯电影节)/2016-07-08(美国)
+ C, W/ c: e( ~' U/ Y" `( j◎IMDb评分  8.1/10 from 9,480 users% ^. _- Q6 G4 }
◎IMDb链接  http://www.imdb.com/title/tt3553976/8 d* h8 v0 s# Q2 P; r
◎豆瓣评分 7.9/10 from 243 users
. ?- F# f) Q! n; |" Q, g4 d  A◎豆瓣链接 https://movie.douban.com/subject/25834735/
9 p+ O+ d- x$ C$ ?& N◎片  长 118分钟
5 z9 R' M( ?: t5 w$ t( h, j9 {◎导  演 马特·罗斯 Matt Ross
( M& [# b7 D) u+ z( n◎主  演 维果·莫腾森 / 乔治·麦凯 / 安娜丽丝·巴索 / 弗兰克·兰格拉 / 史蒂夫·茨恩 / 凯瑟琳·哈恩 / 米西·派勒 / 艾琳·莫里亚蒂 / 萨曼莎·伊斯莱尔6 u3 z' F7 m! p# s3 r+ }+ i7 X: _2 v
◎简  介' Y7 r# F# v+ N$ |* Y& u7 O
  在太平洋西北部的森林深处,与世隔绝,一位慈爱的父亲全心全意地试图将自己六个年幼的孩子培养成出色的成年人。但当灾难降临,他们被迫离开了自己创建的天堂,开始走向外面的世界。这不仅挑战了他对“家长“这个角色的理解,也让孩子们开始怀疑父亲所教给他们的一切。
" P; u7 j& G6 \2 I- \Video
. Y7 {  x& L4 ?* V- H% O; ZID                                       : 1# K* o6 @/ C7 s$ o" X5 \
Format                                   : AVC% a+ e3 e% P6 ?! I
Format/Info                              : Advanced VideoCodec
6 j2 @0 ]; D/ m' Y/ i  ^Format profile                           : High@L4
; H. Y1 C8 X8 Q& @( fFormat settings, CABAC                   : Yes
" o$ Z2 h" A2 F3 e8 aFormat settings, ReFrames                : 5 frames4 i0 ~' L& ~& j# p/ t8 E/ T0 T
Codec ID                                 :V_MPEG4/ISO/AVC
! D6 u  C+ l" S3 yDuration                                 : 1h 59mn3 r: Y6 T5 B% z' w  W
Bit rate                                 : 4 424 Kbps
* @# T# s: t' S3 Y- M* x8 }Width                                    : 1 916 pixels
8 p) q# N/ k; F: u! t  z4 \: }6 tHeight                                   : 792 pixels
  z& `- d& k4 v( \2 WDisplay aspect ratio                     : 2.40:1
8 @9 s& C( s4 d) |! S% RFrame rate mode                          : Constant
* Q$ c' v7 m/ a5 |+ V$ X3 }0 ?; yFrame rate                               : 23.976 fps! l# R: f  c8 e
Color space                              : YUV: \; L% G. D, D: s. W1 {$ K
Chroma subsampling                       : 4:2:0$ @4 S" ^; S' P) Z9 `
Bit depth                                : 8 bits
# ?9 l1 c/ Q- X' [' F6 e* \Scan type                                : Progressive1 L2 a) O- L% j' S
Bits/(Pixel*Frame)                       : 0.1220 F/ w- g; g/ M! X) x
Stream size                              : 3.69 GiB (90%)
8 D, P& J; o4 |% `9 gTitle                                    :Captain.Fantastic.2016.1080p.WEB-DL.DD5.1.H264-FGT
! \7 `: S0 e" |8 O! J8 x0 {7 ULanguage                                 : English4 F9 }: {3 l6 H# r4 Y
Default                                  : Yes9 [0 i: A$ D& G8 v
Forced                                   : No7 |7 j8 s& [3 j8 u  ^$ J
Color range                              : Limited: o$ M! w5 |' P* t
Color primaries                          : BT.709
( x8 x4 n7 F; t  R4 j( bTransfer characteristics                 : BT.709/ c! i  T2 k) v9 _5 x: v
Matrix coefficients                      : BT.709- ^# [4 N$ U5 e) ]
Audio; h1 p2 k- {- [" l* E, @: K
ID                                       : 2( z5 l. A) `' c' F4 O
Format                                   : AC-3
$ R' v+ c3 g& I- S* aFormat/Info                              : Audio Coding 3: Q; L9 L7 y; M2 a
Mode extension                           : CM (complete main)
+ R& T' c3 ^0 z% G2 p' tFormat settings, Endianness              : Big' N. K" u" B2 V* H! `! ?+ Q
Codec ID                                 : A_AC39 E+ g, [" l# _' x6 S, A  q
Duration                                 : 1h 59mn) t' V' [; B& O4 n
Bit rate mode                            : Constant+ j5 g4 `( _+ K  |
Bit rate                                 : 384 Kbps
0 r8 p& ~' _$ G& q  P) SChannel(s)                               : 6 channels9 j3 f) X: Y  Z" E
Channel positions                        : Front: L C R, Side: LR, LFE% @( w  ^  a# n
Sampling rate                            : 48.0 KHz
: l- v# g7 J" O& \5 uFrame rate                               : 31.250 fps(1536 spf)
) X' Z! C% v* @( C( p% Y0 [5 X" fCompression mode                         : Lossy
, ~3 Q- \( V5 a" o4 s: n7 R- ^Stream size                              : 328 MiB (8%)" }9 c+ k' Q9 S0 d" v) H/ s3 Y9 x
Title                                    :Captain.Fantastic.2016.1080p.WEB-DL.DD5.1.H264-FGT
. Y$ ^" W' ]) y7 S& z" s: ELanguage                                 : English3 X) y: x4 F0 T, Z! u3 `+ k! ]9 u
Default                                  : Yes4 P6 _' b; n+ U* P' g: f  i2 L5 x
Forced                                   : No
" z) ^) R. n* T2 u5 fText$ k% p" g% L8 u0 ]
ID                                       : 3
2 ]  ?( }7 s1 S# w# S  |Format                                   : UTF-83 `2 }; V% n. A# W& D+ M/ U
Codec ID                                 : S_TEXT/UTF8( S: Z) `; e; f& d+ C# x
Codec ID/Info                            : UTF-8 Plain Text2 Q& q, s, C5 l* n) j- @- s7 j! V8 L
Language                                 : English
  }7 P9 G1 y  O$ y1 |6 C$ XDefault                                  : Yes0 h& B5 S' Y" r; H1 `2 R5 B4 d
Forced                                   : No
4 e# n/ j9 C' t8 p7 r+ k8 D/ U  sMenu
2 O! F( f- q2 F00:00:00.000                             : en:16 |* ?2 u3 l: A
00:05:15.000                             : en:2
1 X' e1 D6 Z5 R# k. r! U- _3 A00:11:13.000                             : en:3+ Q& R1 a+ R! |# b
00:17:35.000                             : en:4) E7 H& Q' S, I- S6 X/ W. w6 ~
00:25:21.000                             : en:5
0 K) D$ E- e& c) G- k7 L/ Y2 e/ _) T00:31:38.000                             : en:6
, i" D/ V9 v# f: t$ n: @% a' _00:37:42.000                             : en:7
0 l7 T9 C6 T" [; Z& t00:40:26.000                             : en:8
$ g! P! Q' ?* S! B, X5 l7 e00:46:11.000                             : en:9
- [5 @# M- X' U! w1 h6 S00:54:04.000                             : en:10! }% [8 Q/ A3 p9 l8 @
00:59:35.000                             : en:11
/ g1 ]9 D0 k( F1 v: q01:08:22.000                             : en:125 Q" E& W! E' s# q1 Z) Z: |; [
01:14:09.000                             : en:13$ @$ ]0 S# m  m; V" K& X6 I
01:20:19.000                             : en:14; k( P% Y5 d5 [1 _/ e! H- v5 e- _
01:24:31.000                             : en:15/ h: s( g# C8 v
01:30:20.000                             : en:16( z" [/ H( O/ }
01:36:53.000                             : en:17
4 d0 ?/ a8 y) t01:43:04.000                             : en:18
& d3 J% i. D  ]8 X! T0 N01:48:24.000                             : en:19
- @2 V4 s# F8 V% {: d/ T9 l01:52:48.000                             : en:20
1 }- P9 p9 _2 R+ I0 e

/ O" U2 L/ t) e. @, V5 t7 y3 p: ~ 神奇隊長. MKV.torrent (70.13 KB, 下載次數: 8355)

尚未簽到

發表於 2016-10-12 18:59:49 | 顯示全部樓層
VIP精品區,資源無限好賺金任務區,輕松賺金幣
加入VIP,享受高級特權宣傳賺金又升級,超級棒
精妙絕倫的精品,感謝啊!期待你更多更好的創作哦!

尚未簽到

發表於 2016-10-13 06:15:20 | 顯示全部樓層
偶像^^小生一直都在關注你的原創!小生對你之仰慕如滔滔江水連綿不絕!

尚未簽到

發表於 2016-10-13 12:49:08 | 顯示全部樓層
精妙絕倫的精品,感謝啊!期待你更多更好的創作哦!

尚未簽到

發表於 2016-10-14 01:03:40 來自手機 | 顯示全部樓層
偶像^^小生一直都在關注你的原創!小生對你之仰慕如滔滔江水連綿不絕!

尚未簽到

發表於 2016-10-14 14:24:59 | 顯示全部樓層
精妙絕倫的精品,感謝啊!期待你更多更好的創作哦!

尚未簽到

發表於 2016-10-14 16:18:19 | 顯示全部樓層
偶像^^小生一直都在關注你的原創!小生對你之仰慕如滔滔江水連綿不絕!

尚未簽到

發表於 2016-10-14 19:15:03 | 顯示全部樓層
精妙絕倫的精品,感謝啊!期待你更多更好的創作哦!

尚未簽到

發表於 2016-10-14 23:25:21 | 顯示全部樓層
偶像^^小生一直都在關注你的原創!小生對你之仰慕如滔滔江水連綿不絕!
累計簽到︰1 天
連續簽到︰1 天
發表於 2016-10-15 09:03:03 | 顯示全部樓層
精妙絕倫的精品,感謝啊!期待你更多更好的創作哦!

回復樓主 親!! 早上好! 心底有WK、心情就會飛翔,心中要個希望、笑容就會清爽!

 分享同時學會感恩,一句感謝的話語,就是最大的支持!  歡迎交流討論
您需要登錄後才可以回帖 登錄 | 立即注册

本版積分規則

c重要聲明:本論壇是以即時上載言論的方式運作,WK論壇對所有言論的真實性、立場及版權等,不負任何法律責任。而一切言論只代表發佈者個人意見,並非本網站之立場,讀者及用戶務必自行判斷內容之真實性。 由於本論壇受到「即時上載言論」運作方式所規限,故不能完全監察所有言論,若讀者及用戶發現有內容出現「真實性、立場及版權」等問題,請聯絡我們:info@waikeung.net論壇有權刪除任何言論(刪除前或不會作事先警告及通知)| SiteMap[網站地圖]

發表新帖 返回頂部