WK綜合論壇, WK综合论坛

查看:93 回復:3 發表於 5 天前
本主題由 212love 於 3 天前 解除高亮
累計簽到︰1995 天
連續簽到︰1 天
發表於 5 天前 | 顯示全部樓層 |閱讀模式
VIP精品區,資源無限好賺金任務區,輕松賺金幣
加入VIP,享受高級特權宣傳賺金又升級,超級棒

寶劍與權杖 The.Warrior.Queen.Of.Jhansi., 2019.[MKV / 6.78G] [複製鏈接]

影視分享
分類: 電影
題材: 劇情 
地區: 英國 
語言: 英语 
格式: MKV 
年份: 2019
資源: BT资源
1.jpg
5 ~- g0 r6 F5 l' W% J. O" I! _! M7 E. P; l* t- O: L* Y
◎译  名 宝剑与权杖 / Swords and Scepters / Swords and Sceptres: The Rani of Jhansi
" g7 g6 s$ K# I  Q4 V2 O' O◎片  名 The Warrior Queen of Jhansi
; S  C1 T: T% b7 `4 B8 ~  P◎年  代 20195 `2 x: g& `3 O3 \
◎产  地 英国
& N7 l! G& e. Z* r# m2 G◎类  别 剧情- a; h2 z$ c- e
◎语  言 英语
; `7 U! l/ S/ C) i& @◎上映日期 2019-03-10(温哥华女性电影节)
. s; z! j7 }5 @3 N. ~7 D◎IMDb评分 3.5/10 from 245 users# F5 D+ C, t+ j7 R4 z8 {4 x
◎IMDb链接 https://www.imdb.com/title/tt6916348
$ f( G* r" E7 S- d/ r◎豆瓣评分 0/10 from 0 users
# ]2 T$ t9 L4 c, g◎豆瓣链接 https://movie.douban.com/subject/27191803/& g7 D. A9 q7 s8 O! ]8 M
◎片  长 103分钟
- Y2 E, n9 R& T+ ]0 N+ G◎导  演 Swati Bhise# @) q8 m% b8 P- d$ Z
◎编  剧 Devika Bhise / Swati Bhise / Olivia Emden
# B/ |1 `1 u( J: P◎主  演 鲁伯特·艾弗雷特 Rupert Everett
- f( Z* }+ c6 E3 l1 ?      德里克·雅各比 Derek Jacobi
( u) J6 J& T8 K! r      乔迪·梅 Jodhi May7 ~" X, t: H* e5 \
      内森奈尔·帕克 Nathaniel Parker
8 V; s# n1 p, l1 U0 C  l' o      德维卡·贝斯 Devika Bhise
, n, ]6 O  |9 T: K5 ~$ r' O      Ben Lamb
3 j6 B* F; ?. E1 O
$ v( }" G; j, p2 |% n/ o7 ^" h$ Q
: }2 z8 N0 F$ }! H$ @* g5 h◎标  签 印度 | 英国 | 2019年上海国际电影节 | 历史 | DerekJacobi | 剧情 | 2019SIFF | 首选% T( b: r* \, q8 l# T  j

# i, h: ^. K2 s; F# g( H4 d◎简  介
& \: \9 q, ^. E9 Z: |
) t5 R! v5 m; Z, F/ E  鲁伯特·艾弗雷特、德里克·雅各比加盟[宝剑与权杖](Swords and Scepters,暂译)。主演德维卡·贝斯、乔迪·梅、内森奈尔·帕克等。印度导演斯瓦蒂·贝斯执导,故事聚焦印度“詹西女王”拉克希米巴伊1857年反抗英国东印度公司的起义行动。艾弗雷特、雅各比分饰休·罗斯爵爷、帕默斯顿勋爵。8 @$ S2 z, d) Z* L7 y
Video
9 u) A1 M: j, V3 L# G9 xID : 1
' M4 c# c0 [/ U/ _! e6 kFormat : AVC! K" w% N- @+ ^( L
Format/Info : Advanced Video Codec5 {* ^; R8 c4 E# o+ H+ T7 G
Format profile : [email protected]4 E/ d1 Z. n  F- i0 o
Format settings : CABAC / 4 Ref Frames
! U$ `  I3 ?( N% \! hFormat settings, CABAC : Yes
, e3 y6 s1 e9 ]' k5 `+ g) l! Y8 N' KFormat settings, Reference frames : 4 frames9 G+ B- E" F1 |* \0 u  t
Codec ID : V_MPEG4/ISO/AVC
9 T7 T7 X; w4 H8 BDuration : 1 h 42 min
- a) g! y. x" V1 {% h: u. n  KBit rate mode : Constant
4 ^* E4 `1 P8 v5 _) ]9 u# I9 \Bit rate : 8 813 kb/s% ?7 s8 i$ k: _& }9 H
Nominal bit rate : 10 000 kb/s8 i* ]; ~4 z2 P+ O9 A3 n+ O1 C
Width : 1 920 pixels
/ R  V7 S; {. V! YHeight : 800 pixels; ~& b5 f- {  j5 d6 ^* ^5 Q
Display aspect ratio : 2.40:1
  @% I: n6 t  N5 LFrame rate mode : Constant3 T( S0 r; R4 G, i/ E1 |
Frame rate : 23.976 (24000/1001/189150) FPS
' `5 m0 z3 x! G' f# X; N# e! f) zColor space : YUV
$ ^" O0 m* X7 r( C, S+ J7 AChroma subsampling : 4:2:08 @# q6 P! c8 H+ `
Bit depth : 8 bits
! ^# ]& x2 p, C' k2 Q7 g8 ?Scan type : Progressive
& r& _& D+ |* z) [" p1 V3 V3 V& hBits/(Pixel*Frame) : 0.239- z: Q" F% M% R" [1 ~% Q. n
Stream size : 6.32 GiB (93%)
# @1 X! M1 m3 d& B% UDefault : Yes( u5 Z8 E9 c* g' T4 I
Forced : No/ N' o! u' j& v  l& u) F& Y
Color range : Limited
# Z8 b; l/ \& B$ g# f5 M  v4 FColor primaries : BT.709% L! L" F& t* H7 E; k, E7 ]
Transfer characteristics : BT.709
2 [& i' {, l4 o% HMatrix coefficients : BT.7093 h7 @$ T, f1 I+ G) ]

" ?7 f1 c, Q9 C  LAudio
; Q3 F+ r7 J) S4 J" I! T! Q- cID : 2
* M9 N5 J0 B1 p% P! xFormat : E-AC-3* `9 _( Z  T. v
Format/Info : Enhanced AC-36 U+ v8 A6 ]( d' d( V% F
Commercial name : Dolby Digital Plus
* A; a( g, H7 k6 w! lCodec ID : A_EAC3
5 s" {/ v( y) L' fDuration : 1 h 42 min
5 M4 T5 j/ @6 EBit rate mode : Constant
+ i* Z1 F9 {4 V6 ?" b3 QBit rate : 640 kb/s7 n! Z: @8 N3 K
Channel(s) : 6 channels
6 B; [* E3 _$ X$ b& x% h! J- k0 V  RChannel layout : L R C LFE Ls Rs8 Y, V$ a5 w* H, R- n
Sampling rate : 48.0 kHz" c  v( v0 F7 m8 l6 _
Frame rate : 31.250 FPS (1536 SPF)# W$ N7 X: X" S. a
Compression mode : Lossy( v2 m1 H- W. a" v; i
Stream size : 470 MiB (7%)
' x( G- }0 e  v. ?Language : English6 }, B1 a$ e' Y# a
Service kind : Complete Main
5 F2 a1 Q- G" eDefault : Yes7 N9 w1 m! ?; S5 F9 r
Forced : No
( w* ?2 G1 B8 f1 j% T5 w( M$ }$ ?5 p) T% ]
Text #1
" m; p3 o8 P7 Z' O% s0 qID : 3
% Q3 P% Q" Z2 }2 v& c- oFormat : UTF-8
% n2 {! ]/ r' q  s% lCodec ID : S_TEXT/UTF8
4 ~' R. i5 N7 w9 z# D( _Codec ID/Info : UTF-8 Plain Text% H. F% C! f' _" }+ M
Duration : 1 h 35 min
4 U5 j( |* U. RBit rate : 46 b/s
7 c: c# L9 X* y8 S* fCount of elements : 10404 B# v( R8 F2 K9 Q$ t
Stream size : 33.0 KiB (0%)7 A+ i) G; T6 A) s  Y! j
Language : English) B; ?2 {) n- s2 Y6 E) K. y# h
Default : No
7 Q/ X! V; \9 Y4 x. x- {Forced : No6 f: `% S! R0 J2 ^+ M) f& V. b
2 q: P" a. S% W2 _' z
Text #2
, S1 A" E- u9 d* sID : 4
6 l* O7 N; S' \' k0 f* @Format : UTF-87 f) q' S, ~1 C& {$ o8 p
Codec ID : S_TEXT/UTF8# D& x  u+ n1 y. j9 @8 [! Q) Y
Codec ID/Info : UTF-8 Plain Text/ O, s* e; j- W' V
Duration : 1 h 35 min
4 P9 v* [; d" s: G. q! F9 a4 vBit rate : 53 b/s
2 W  ~* V0 C+ f/ k) {Count of elements : 1259
: ~& H3 B; [) b" G, v5 mStream size : 37.4 KiB (0%)6 g% z$ S% V" G  _
Title : SDH" b' L& M2 `# D2 A% A6 v3 r! t6 P5 C* o
Language : English2 y: m5 r8 l: Z% k6 u
Default : No( x$ l: ^; l1 W2 V# K/ q
Forced : No

0 a/ x' M/ _8 ]" H: C  W, F9 f0 }& _, P

9 \) Q( e2 F0 h5 X! s% O' E

寶劍與權杖. MKV.torrent

34.46 KB, 下載次數: 8

累計簽到︰2 天
連續簽到︰1 天
發表於 5 天前 | 顯示全部樓層
VIP精品區,資源無限好賺金任務區,輕松賺金幣
加入VIP,享受高級特權宣傳賺金又升級,超級棒
ddddddddddddddddddddddddddddddddddddd
累計簽到︰1235 天
連續簽到︰24 天
發表於 5 天前 | 顯示全部樓層
感謝大大的辛勞分享!我會繼續在WK關注大大的文章!
累計簽到︰1 天
連續簽到︰1 天
發表於 5 天前 | 顯示全部樓層
Thank you for sharing.

回復樓主 親!! 下午好,中午養足了精神嗎?讓我們一起渡過下午茶時間,WK有您更精彩!

 分享同時學會感恩,一句感謝的話語,就是最大的支持!  歡迎交流討論
您需要登錄後才可以回帖 登錄 | 立即注册

本版積分規則

c重要聲明:本論壇是以即時上載言論的方式運作,WK論壇對所有言論的真實性、立場及版權等,不負任何法律責任。而一切言論只代表發佈者個人意見,並非本網站之立場,讀者及用戶務必自行判斷內容之真實性。 由於本論壇受到「即時上載言論」運作方式所規限,故不能完全監察所有言論,若讀者及用戶發現有內容出現「真實性、立場及版權」等問題,請聯絡我們:[email protected]論壇有權刪除任何言論(刪除前或不會作事先警告及通知)| SiteMap[網站地圖]

發表新帖 返回頂部